#TITLE:Destination of the Heart;
#SUBTITLE:;
#ARTIST:Renard;
#TITLETRANSLIT:;
#SUBTITLETRANSLIT:;
#ARTISTTRANSLIT:;
#CREDIT:;
#BANNER:doh-bn.jpg;
#BACKGROUND:doh-bg.jpg;
#LYRICSPATH:;
#CDTITLE:doh.png;
#MUSIC:DOH.ogg;
#OFFSET:-0.450;
#SAMPLESTART:64.360;
#SAMPLELENGTH:12.000;
#SELECTABLE:YES;
#DISPLAYBPM:400.000;
#BPMS:0.000=150.000,28.000=399.999,173.000=-200.000,177.000=399.999,178.500=-200.000,182.500=399.999,364.000=200.001,372.000=399.999,548.000=-75.000,552.000=150.000;
#STOPS:178.000=2.220
,187.000=1.380
;
#BGCHANGES:;
// cache tags:
#FIRSTBEAT:4.000;
#LASTBEAT:588.000;
#SONGFILENAME:Songs/Music V.I.P ^_^/DOH/DOH.sm;
#HASMUSIC:1;
#HASBANNER:1;
#MUSICLENGTH:105.124;
// end cache tags

//---------------dance-single - ----------------
#NOTES:
     dance-single:
     :
     Hard:
     19:
     1.000,1.000,1.000,0.381,0.124,741.000,117.000,40.000,32.000,22.000:
0000
0000
0000
0000
,
1000
0000
0000
0100
0000
0000
0010
0000
0000
0001
0000
0000
0010
0000
0000
0100
,
0000
0000
0010
0000
0000
0001
0000
0000
0010
0000
0000
0100
0000
0000
1000
0000
,
0000
0100
0000
0000
0010
0000
0000
0100
0000
0000
0001
0000
0000
0010
0000
0000
,
0100
0000
0000
0000
0000
0000
1010
0000
0000
0100
0000
0000
0001
0000
0000
0000
0000
0000
0010
0000
0000
0100
0000
0000
1010
0000
0000
0000
0000
0000
0100
0000
,
0000
0010
0000
0000
1001
0000
0000
0000
0000
0000
0001
0000
0000
0010
0000
0000
0101
0000
0000
0000
0000
0000
0010
0000
0000
0001
0000
0000
1100
0000
0000
0000
,
0000
0000
1000
0000
0000
0100
0000
0000
0011
0000
0000
0000
0000
0000
0110
0000
0000
0000
0000
0000
1001
0000
0000
0000
0000
0000
1110
0000
0000
0000
0000
0000
,
0111
0000
0100
0000
1000
0010
0100
0000
,
1001
0000
0001
0100
0010
0000
0010
0000
,
0020
1000
0031
0010
,
0200
0010
1300
0001
,
0012
0100
1003
0100
,
0010
0100
0001
0010
,
0200
0001
0310
0100
,
2010
0000
0100
0000
3010
0001
0100
0000
,
1101
0000
0100
0000
0010
0100
1000
0100
,
1010
0000
0001
0010
0100
0000
0010
0000
,
0201
1000
0311
0011
,
0100
0000
0020
0001
0100
1000
0130
0000
,
0210
0000
0001
0000
0310
0000
1000
0010
,
0100
0010
0101
1000
,
0110
1000
0011
0100
,
1001
0000
0100
0000
0100
1010
0001
0000
,
1101
0000
0010
0000
0100
0001
0010
0000
,
1000
0000
0001
0000
0100
1000
0100
0000
,
2000
0001
3100
0010
,
0200
1000
0301
0100
,
0200
1000
0310
0100
,
0001
1000
0010
0100
,
2000
0010
3100
0001
,
0200
0000
0010
0000
0301
1010
0100
0000
,
1011
0000
0100
0010
0200
0000
1000
0001
,
0310
0000
0100
0010
1000
0000
1000
0000
,
0210
0001
1300
1100
,
0020
0000
0100
1000
0031
0000
0100
0000
,
0200
0000
0001
0000
1300
0000
0010
1000
,
0100
0010
0101
1000
,
1011
0100
0011
0100
,
1010
0000
1001
0000
0010
1001
0110
0000
,
2111
0000
0000
0000
,
0200
0000
0000
0000
,
0020
0000
0000
0000
,
0002
0000
0000
3333
,
1111
0M00
1011
0100
,
0010
0000
0M00
M0MM
,
0M00
00M0
0M0M
M0M0
,
0000
0000
0000
0M00
,
1011
0100
0010
0101
,
1010
0100
0001
0100
,
0011
1100
0110
1001
,
0100
0000
0001
0000
0100
0010
0001
0010
,
0100
0010
1100
0101
,
0100
0000
0010
0100
1000
0000
0010
0000
,
0101
1000
1010
1100
,
0001
0000
1000
0000
0100
1010
0100
0000
,
1011
1000
0011
0100
,
1010
0001
0100
0010
,
1001
1100
0011
0110
,
1000
0000
0010
0000
0100
0010
0100
1000
,
0110
0001
1010
0011
,
0100
0000
0001
0010
1000
0000
0010
0000
,
0101
1001
0110
1100
,
0100
0000
0010
0000
0100
0010
1000
0000
,
1101
0000
0010
0000
0100
0001
0010
0000
,
1000
0010
1100
0010
,
0100
0000
1001
0000
1010
0100
0001
0000
,
0010
0100
0001
1000
,
0020
0100
0001
1030
,
0001
0010
0001
0100
,
1010
1100
0011
0100
,
0011
0000
1100
0000
0110
0001
1000
0001
,
0110
1000
0100
0010
0100
0010
0001
0000
,
0100
0010
0001
0100
,
0010
0001
1010
0100
1000
0001
0110
0000
,
0100
0000
0010
0000
1000
0001
0010
0000
,
0100
0001
0010
0100
,
0001
1000
0010
0100
,
0011
1100
0110
0010
,
1000
0000
0010
0000
0010
1001
0110
0000
,
1011
0000
1000
0100
0010
0000
0010
0100
,
0001
0000
0100
0010
1000
0000
0100
0000
,
0101
0000
0010
0001
0010
0000
0100
0010
,
1000
0000
1000
0100
0010
0000
0001
0000
,
0100
0000
0010
0000
1000
0001
0010
0000
,
0000
0000
1001
0000
,
0100
0100
0001
1000
,
1000
0000
0100
0000
0010
0001
0010
0000
,
0111
1000
0100
0010
0001
0010
0001
0010
,
0100
0010
0100
0010
0100
1000
0100
1000
,
0010
0100
1001
0010
0100
0010
0100
1000
,
0100
0010
0001
0010
0001
0010
1101
0000
,
00M0
M000
00M0
0M00
,
000M
0M00
00M0
M000
,
1011
0100
0001
1000
0200
0010
0301
0010
,
0200
1000
0310
0001
0200
0010
0301
1000
,
0100
0010
0001
1000
0200
1000
0301
0010
,
0200
1000
0310
0001
0200
0010
0301
1000
,
0020
0100
0001
1000
0100
1000
0031
0100
,
0010
0001
0010
0100
1000
0100
0010
1000
,
0001
0100
0010
1000
0100
1000
0001
0010
,
0001
1000
0010
1000
0001
0010
0100
0010
,
1101
0010
0001
0010
0100
1000
0100
1000
,
0001
0100
0001
0100
0010
1000
0010
1000
,
0001
0010
0100
1000
0100
0010
0001
1000
,
0100
0010
0001
0010
0100
1000
0001
0010
,
0100
1000
0100
1000
0001
0010
0001
0010
,
0001
0100
0001
0100
0010
1000
0010
1000
,
0001
0100
0010
1000
0010
0100
0001
1000
,
0100
0010
0001
0010
0100
1000
0100
0010
,
1001
0010
0100
1000
0200
0010
0301
1000
,
0200
0010
0301
0010
0200
1000
0301
1000
,
0001
0100
0010
1000
0020
0100
0031
1000
,
0020
0100
0031
0100
0020
1000
0031
1000
,
0201
0010
1000
0010
0301
1000
0100
0010
,
0200
1000
0301
0010
0200
1000
0301
1000
,
0011
0100
0010
0100
0001
1000
0010
0100
,
0011
1000
0001
0100
0010
1000
0001
0100
,
1001
0010
0100
1000
0101
0010
0100
1000
,
0110
1000
0100
0010
0001
0100
0001
0010
,
0100
0010
0001
1000
0100
0010
0001
0100
,
0001
0100
0010
1000
0110
1000
0001
1000
,
0011
1000
0010
0100
0001
0100
0001
1000
,
0101
0010
0001
0010
0100
1000
0001
0100
,
0011
0100
0010
1000
0010
1000
0001
0010
,
0101
1000
0100
0010
0001
0100
0001
0100
,
0011
1000
0010
1000
0100
0010
0001
0010
,
0100
1000
0011
0100
0001
1000
0110
1000
,
0101
0010
0001
1000
0011
1000
0001
0100
,
1001
0100
0010
0100
1001
0010
0100
0010
,
2002
0000
0000
0000
,
0000
0000
0000
0000
,
0000
0000
0000
0000
,
0000
0000
0000
0000
,
3113
0000
0000
0000
,
0000
0000
0000
0000
,
0000
0000
0000
0000
,
0000
0000
0000
0000
,
M00M
0000
00M0
0M00
0000
000M
0000
0M00
,
0000
0000
M000
00M0
0000
000M
00M0
0M00
,
00M0
0000
0000
0000
,
1001
0000
0010
0100
0000
0001
0000
0100
,
0000
0000
1000
0010
0000
0001
0010
0100
,
0010
0000
0100
0010
0000
0001
0000
0010
,
0000
0100
0000
0010
0000
1000
0000
0100
,
0010
0000
0001
0010
1000
0100
0010
0100
,
0011
1000
0000
0100
0001
0010
0100
0000
,
1011
0000
0000
0000
0000
0000
0000
0000
1000
0100
0010
0100
0010
0001
0010
0001
,
1100
0000
0000
0000
;
